#TITLE:Tokyo Style Speedcore;
#SUBTITLE:;
#ARTIST:m1dy;
#TITLETRANSLIT:;
#SUBTITLETRANSLIT:;
#ARTISTTRANSLIT:;
#CREDIT:DossarLX;
#BANNER:bn.png;
#BACKGROUND:bg.png;
#LYRICSPATH:;
#CDTITLE:cd.png;
#MUSIC:m1dy - Tokyo Style Speedcore.mp3;
#OFFSET:2.950;
#SAMPLESTART:79.761;
#SAMPLELENGTH:12.000;
#SELECTABLE:YES;
#BPMS:0.000=396.000,192.000=397.000,288.000=198.501,304.000=396.000,595.875=792.014,596.000=396.000,832.000=198.002,834.000=297.001,835.000=792.014,845.000=110.002,846.000=396.000;
#STOPS:;
#BGCHANGES:0.000=Tokyo.avi=1.000=1=1=0,
99999=-nosongbg-=1.000=0=0=0 // don't automatically add -songbackground-
;
// cache tags:
#FIRSTBEAT:20.000;
#LASTBEAT:846.000;
#SONGFILENAME:Songs/Music V.I.P ^_^/Tokyo Style Speedcore (DossarLX)/Tokyo style speedcore.sm;
#HASMUSIC:1;
#HASBANNER:1;
#MUSICLENGTH:129.511;
// end cache tags

//---------------dance-single - rofl Video----------------
#NOTES:
     dance-single:
     rofl Video:
     Hard:
     12:
     1.000,1.000,1.000,0.062,0.170,994.000,431.000,8.000,0.000,0.000:
0000
0000
0000
0000
,
0000
0000
0000
0000
,
0000
0000
0000
0000
,
0000
0000
0000
0000
,
0000
0000
0000
0000
,
1001
0000
0000
1000
0100
0001
1000
0010
,
0100
0001
1000
0010
0001
0010
0100
1000
,
0100
0010
1000
0001
0100
1000
0010
0100
,
1000
0000
0001
0000
0010
0000
1000
0000
0100
0000
0010
0000
0001
0010
1000
0000
,
0011
0000
0000
0001
0010
1000
0001
0100
,
0010
0001
1000
0100
0001
0010
1000
0001
,
0010
0100
0001
0010
1000
0001
0100
0001
,
1010
0100
0011
0100
1010
0001
0110
1000
,
0101
0000
0000
1000
0100
1000
0001
0010
,
1000
0100
0010
0100
0001
0010
0001
0010
,
0100
1000
0010
0001
0100
0010
1000
0100
,
0010
0000
0001
0000
0100
0000
1000
0000
0001
0000
0010
0000
0001
0010
0100
0000
,
1010
0000
0000
0001
1000
0010
0001
1000
,
0100
0010
0001
0100
1000
0010
0001
1000
,
0010
0001
0100
1000
0001
0010
0100
0010
,
1100
0010
1001
0100
0011
1000
0101
0010
,
1100
0000
0000
1000
0010
0100
0010
1000
,
0010
0001
0100
0001
1000
0010
0001
0100
,
1000
0001
0100
1000
0001
0010
0100
1000
,
0100
0000
0010
0000
0001
0000
1000
0000
0001
0000
1000
0000
0001
0100
0010
0000
,
1001
0000
0000
0100
0010
0100
0001
0100
,
0010
0001
0010
0001
0100
1000
0010
0100
,
0002
2003
3020
0030
,
1001
0100
0001
0100
0001
0100
0010
0001
,
0000
0000
0000
0020
0000
0000
0000
0000
0000
0000
0000
0000
0000
0000
0000
0000
,
0000
0030
0020
0000
,
0000
0000
0000
0000
,
0000
0000
0000
0030
,
1001
1001
0011
1100
,
1001
1010
0110
0101
,
1100
0000
1100
0000
1001
0000
0011
0100
,
1001
1100
1010
1001
,
1010
1001
0101
0011
,
0110
1100
1001
0110
,
0011
0000
1001
0110
1001
0110
1001
0000
,
1100
0000
0001
1000
0010
1000
0001
1000
,
0010
1000
0001
1000
0010
1000
0001
1000
,
0011
1100
0110
1100
,
0101
1010
1001
0110
,
0101
0110
1100
1001
,
0011
0110
1100
1001
,
0011
0110
1100
1001
,
0000
0000
0000
0000
0000
0000
0000
0000
0000
0000
0000
0000
0000
0000
0000
0000
0000
0000
0000
0000
1000
0000
0000
0000
0000
0000
0000
0000
0000
0000
0000
0000
0000
0000
0000
0000
0000
0000
0000
0000
0000
0000
0000
0000
0000
0000
0000
0000
0000
0000
0000
0000
0000
0000
0000
0000
0000
0000
0000
0000
0000
0000
0000
0000
0000
0000
0000
0000
0000
0001
0000
0000
0000
0000
0000
0000
0000
0000
0000
0000
0000
0000
0000
0000
0000
0000
0000
0000
0000
0000
0000
0000
0000
0000
0000
0000
0000
0000
0000
0000
0000
0000
0000
0000
0000
0000
0000
0000
0000
0000
0000
0000
0000
0000
0000
0000
1000
0000
0000
0000
0000
0000
0000
0000
0000
0000
0000
0000
0000
0000
0000
0000
0000
0000
0000
0000
0000
0000
0000
0000
0000
0000
0000
0000
0000
0000
0000
0000
0000
0000
0000
0000
0000
0000
0000
0000
0000
0000
0000
0000
0000
0000
0000
0000
0000
0000
0000
0000
0100
0000
0000
0000
0000
0000
0000
0000
0000
0000
0000
0000
0000
0000
0000
0000
0000
0000
0000
0000
0000
0000
0000
0000
,
0010
0000
0000
0000
0001
1000
0010
0100
,
1001
0000
0000
1000
0100
0001
1000
0100
,
0010
0100
0010
0001
0010
0100
1000
0100
,
1000
0001
0100
1000
0001
0100
0010
0001
,
1000
0100
1000
0001
0100
1000
0010
1000
,
0001
1000
0001
0100
1000
0010
1000
0100
,
0001
1000
0100
0001
0010
0001
0010
0001
,
1000
0001
0100
0010
1000
0100
0010
0100
,
0001
0010
0100
1000
0100
0001
1000
0010
,
0100
0000
0001
0010
0100
1000
0010
0000
,
0001
0100
1000
0001
1000
0010
0001
0100
,
0001
1000
0001
0100
1000
0100
1000
0100
,
0001
1000
0010
0100
0001
1000
0010
0001
,
0100
1000
0100
0010
0001
0100
0010
0000
,
1000
0100
0001
0000
1100
0000
1010
0000
,
1001
1001
1001
1001
,
1000
0100
0010
0001
1000
0100
0010
0001
1000
0100
0010
0001
1000
0100
0010
0001
,
1000
0010
1001
0100
1010
0001
1100
0010
,
1001
0100
0011
1000
0110
0001
1100
0010
,
1001
0100
1010
0001
0110
1000
0011
0100
,
1001
0100
0011
1000
0101
0010
1100
0001
,
1010
0001
0110
1000
0101
0010
1001
0100
,
0011
1000
0110
0001
1100
0010
1001
0100
,
0011
1000
0110
0001
1100
0010
1001
0100
,
1001
0000
0000
0000
0000
0000
0000
0000
0000
0000
0000
0000
0000
0011
0000
0000
0000
0000
0000
0000
0000
0000
0000
0000
0000
0000
0000
0000
0110
0000
0000
0000
0000
0000
0000
0000
0000
0000
0000
0000
0000
0000
0000
0000
0000
0000
0000
1100
0000
0000
0000
0000
0000
0000
0000
0000
0000
0000
0000
0000
0000
0000
0000
0000
,
0000
0000
0000
0000
0000
0000
0000
0000
1010
0000
0000
0000
0000
0000
0000
0000
0000
0000
0000
0000
0000
0000
0000
0000
0000
0000
0000
0000
0000
0000
0000
0000
0000
0000
0000
0000
0000
0101
0000
0000
0000
0000
0000
0000
0000
0000
0000
0000
0000
0000
0000
0000
0000
0000
0000
0000
0000
0000
0000
0000
0000
0000
0000
0000
,
0011
0000
0110
0000
,
0000
0000
0000
0000
,
0001
0010
0100
1000
0001
0010
0100
1000
0001
0010
0100
1000
0001
0010
0100
1000
,
0001
0100
1000
0010
,
1000
0010
1000
0001
,
0010
0001
1000
0010
,
1000
0101
0110
0110
,
1001
0100
0010
0100
,
0010
0001
1000
0010
,
0100
0010
0100
0010
0100
0010
0100
0000
,
0110
0000
0000
0000
,
1001
0110
0011
1100
,
1010
0110
0101
0011
,
1010
0101
1010
1100
,
0101
1100
0011
1010
,
0110
1001
1100
0011
,
0101
1010
0110
1001
,
1100
0011
0101
1010
,
1001
0000
0101
0000
1100
0010
1100
0010
,
1001
1010
0110
0101
,
0011
0110
1100
1001
,
1010
1100
1001
0011
,
1010
0110
0101
1001
,
1100
1010
0110
0101
,
0011
0110
1100
1010
,
0100
0000
0000
0001
0000
0001
0100
0000
,
0010
0100
0000
1000
0001
0010
0100
0010
,
1001
1001
1001
1001
,
1010
1010
1010
1010
,
1001
0101
0011
1010
,
0110
0110
0110
0110
,
1100
0101
1001
0011
,
0110
1100
1010
0110
,
0101
1100
1001
0011
,
1000
0100
1000
0100
1000
0100
1000
0100
,
1010
0011
0101
1001
,
1100
0110
0011
0101
,
0110
1010
1001
1100
,
0101
0011
1010
1010
,
1100
0011
0101
1010
,
0110
1100
0011
0101
,
1001
0000
1010
0000
0110
0000
0011
1100
,
0011
1100
0011
1100
0011
1100
0011
1100
,
0001
0000
1000
0000
,
0010
0010
0001
0001
,
0100
0100
0010
0000
,
0010
0000
0100
0000
,
0110
0000
1000
0000
,
0001
0001
1000
1000
,
0010
0010
0100
0000
,
0001
0000
1000
0000
,
1010
0000
0010
0000
,
1000
1000
0010
0010
,
0100
0100
0001
0000
,
0010
0000
0001
0000
,
0101
0000
0100
0000
,
0100
0100
1000
1000
,
0010
0010
0001
0000
,
1100
0011
1100
0011
1100
0000
0110
0000
,
0011
0000
0101
0000
,
1010
0010
0110
0100
,
0101
0001
0011
0000
,
0110
0000
1100
1100
,
1010
0000
0101
0000
,
1100
0100
1100
1000
,
1001
0001
0011
0000
,
0110
0110
0110
0110
,
1001
0000
0011
0000
,
1001
1000
1010
0010
,
0110
0100
0101
0000
,
0110
0000
1010
1010
,
1001
0000
0011
0000
,
0101
0001
1001
1000
,
1010
1010
0110
0110
,
0001
0000
0000
0000
0001
0000
0000
0000
1000
0100
0010
0001
1000
0010
0100
0001
,
1000
1001
1100
1010
,
0110
0101
0011
0110
,
1100
1010
0110
0101
,
1001
0011
1100
1001
,
1001
1100
1010
0110
,
0101
0011
0110
1100
,
1010
0110
0101
0011
,
0100
0001
0100
0001
0100
0001
0100
0001
,
0100
0000
1001
0000
,
0110
0000
0011
0000
,
1100
0000
1001
0000
,
0101
0000
1010
1001
,
0110
0000
1001
0000
,
1100
0000
0011
0000
,
1100
0000
1001
0000
,
0011
0000
1000
0011
1100
0000
1001
0000
,
1010
0100
1001
0010
,
0101
1000
0110
0001
,
1100
0010
1001
0100
,
1010
0001
0110
1100
,
1001
0010
1100
0001
,
1010
0100
1001
1000
,
0011
0000
1000
0110
1001
0000
1010
0000
,
1001
0110
1001
0110
0000
0000
0000
0000
,
1100
1100
1100
1100
,
1100
1100
1100
1100
,
1001
1001
1001
1001
,
1001
0000
1001
0110
1001
0000
1001
0000
,
0101
0101
0101
0101
,
0101
0101
0101
0101
,
0011
0011
0011
0011
,
0011
0000
0011
1100
0011
1100
0011
0000
,
1010
1010
1010
1010
,
1010
1010
1010
1010
,
0110
0110
0110
0110
,
0110
0000
0110
1001
0110
0000
0110
0000
,
1001
1001
1001
1001
,
1001
1001
1001
1001
,
0001
0010
0001
0010
0100
0001
0100
0001
,
0010
0100
0010
0100
0001
0100
0001
0100
,
1001
0000
0001
0000
,
0010
0010
0100
0100
,
1001
1001
1001
1001
,
0011
0000
0011
0000
0011
0000
0001
0010
,
1100
0000
1000
0000
,
0100
0000
0100
0000
0010
0000
0010
0001
,
1100
0000
1010
0000
0110
1001
0110
0000
,
1001
0000
1001
0000
0011
1100
0011
1100
,
0011
0000
1000
0000
,
0010
0010
0100
0100
,
0011
0011
0011
0011
,
1000
0010
0100
0000
0001
0100
1000
0000
0100
0010
0001
0000
0010
0001
0100
0000
,
1000
0001
1000
0001
1000
0001
1000
0001
,
1000
0001
1000
0001
1000
0001
1000
0001
,
0000
0000
0000
0000
,
0001
0010
0100
1000
0001
0010
0100
1000
0001
0010
0100
1000
0001
0010
0100
1000
,
0000
0200
0000
0000
0000
0000
0000
0000
0000
0000
0000
0000
0000
0000
0000
0000
,
0000
0000
0000
0300
0200
0000
0000
0000
,
0000
0000
0000
0000
,
0000
0000
0000
0000
0000
0000
0000
0000
0000
0000
0300
0000
,
0200
0000
0000
0000
,
0000
0000
0000
0000
,
0000
0300
0110
0000
;

//---------------dance-single - ----------------
#NOTES:
     dance-single:
     :
     Challenge:
     15:
     1.000,1.000,1.000,0.062,0.490,1098.000,653.000,8.000,0.000,0.000:
0000
0000
0000
0000
,
0000
0000
0000
0000
,
0000
0000
0000
0000
,
0000
0000
0000
0000
,
0000
0000
0000
0000
,
1001
0000
0000
0000
0000
0000
1000
0010
0100
0000
0001
0000
1000
0010
1000
0000
,
0100
0001
0100
0000
1000
0000
0010
0100
0001
0000
0010
0000
0100
0000
1000
0000
,
0100
0001
0010
0000
1000
0000
0001
1000
0100
0000
1000
0000
0010
0000
0010
0000
,
1000
0100
0001
0000
0010
0000
1000
0010
0100
0000
0100
0000
1001
0110
1001
0000
,
0011
0000
0000
0000
0000
0000
0001
1000
0010
0000
0010
0000
0001
1000
0100
0000
,
0010
0100
0001
0000
1000
0000
0100
0010
0001
0000
0001
0000
1000
0000
0001
0000
,
0010
1000
0100
0000
0001
0000
1000
0001
1000
0000
0001
0000
0100
0000
0100
0000
,
1010
0101
1010
0000
0011
1100
0011
0000
1010
0101
1010
0000
0110
1001
0110
0000
,
1001
0000
0000
0000
0000
0000
1000
0010
0100
0000
1000
0000
0001
0100
0010
0000
,
1000
0001
0100
0000
0010
0000
0100
1000
0001
0000
0010
0000
0001
0000
0010
0000
,
0100
1000
0100
0000
0010
0000
0001
1000
0100
0000
0010
0000
1000
0000
1000
0000
,
0010
1000
0001
0000
0100
0000
1000
0100
0001
0000
0010
0000
0101
1010
0101
0000
,
1100
0000
0000
0000
0000
0000
0001
0010
1000
0000
0010
0000
0001
0100
1000
0000
,
0100
0001
0010
0000
0010
0000
0100
1000
0100
0000
0010
0000
0001
0000
1000
0000
,
0010
1000
0010
0000
0100
0000
0001
0100
0001
0000
0010
0000
0100
0000
1000
0000
,
1100
0011
1100
0000
1001
0110
1001
0000
0011
1100
0011
0000
0101
1010
0101
0000
,
0110
0000
0000
0000
0000
0000
1000
0100
0010
0000
0100
0000
0010
0001
1000
0000
,
0010
1000
0001
0000
0100
0000
0001
0100
1000
0000
1000
0000
0001
0000
0100
0000
,
1000
0010
1000
0000
0100
0000
0001
0100
0001
0000
0010
0000
0100
0000
1000
0000
,
0100
0010
0100
0000
0001
0000
1000
0010
0001
0000
1000
0000
1001
0110
1001
0000
,
0011
0000
0000
0000
0000
0000
0100
1000
0010
0000
0100
0000
0001
1000
0100
0000
,
0010
1000
0001
0000
0010
0000
0001
1000
0100
0000
1000
0000
0010
0000
0100
0000
,
0002
2003
3020
0030
,
1001
0010
0100
1000
0001
0010
0100
1000
0001
0010
0100
1000
0010
0100
0001
1000
,
0000
0000
0000
0020
0000
0000
0000
0000
0000
0000
0000
0000
0000
0000
0000
0000
,
0000
0030
0020
0000
,
0000
0000
0000
0000
,
0000
0000
0000
0030
,
1001
1001
0011
1100
,
1001
1010
0110
0101
,
1100
0000
1100
0000
1001
0000
0011
0110
,
1001
1100
1010
1001
,
1010
1001
0101
0011
,
0110
1100
1001
0110
,
0011
0000
1001
0110
1001
0110
1001
0000
,
1100
0000
0001
1000
0010
1000
0001
1000
,
0010
1000
0001
1000
0010
1000
0001
1000
,
0011
0010
1100
1000
0110
0001
1100
0010
,
0101
0100
1010
0100
1001
0001
0110
1000
,
0101
1000
0110
0001
1100
0010
1001
0100
,
0011
1000
0110
0001
1100
0010
1001
0100
,
0011
1000
0110
0001
1100
0010
1001
0100
,
0000
0000
0000
0000
0000
0000
0000
0000
0000
0000
0000
0000
0000
0000
0000
0000
0000
0000
0000
0000
1001
0000
0000
0000
0000
0000
0000
0000
0000
0000
0000
0000
0000
0000
0000
0000
0000
0000
0000
0000
0000
0000
0000
0000
0000
0000
0000
0000
0000
0000
0000
0000
0000
0000
0000
0000
0000
0000
0000
0000
0000
0000
0000
0000
0000
0000
0000
0000
0000
1001
0000
0000
0000
0000
0000
0000
0000
0000
0000
0000
0000
0000
0000
0000
0000
0000
0000
0000
0000
0000
0000
0000
0000
0000
0000
0000
0000
0000
0000
0000
0000
0000
0000
0000
0000
0000
0000
0000
0000
0000
0000
0000
0000
0000
0000
0000
1001
0000
0000
0000
0000
0000
0000
0000
0000
0000
0000
0000
0000
0000
0000
0000
0000
0000
0000
0000
0000
0000
0000
0000
0000
0000
0000
0000
0000
0000
0000
0000
0000
0000
0000
0000
0000
0000
0000
0000
0000
0000
0000
0000
0000
0000
0000
0000
0000
0000
0000
0000
1001
0000
0000
0000
0000
0000
0000
0000
0000
0000
0000
0000
0000
0000
0000
0000
0000
0000
0000
0000
0000
0000
0000
0000
,
1001
0000
0000
0000
0001
1000
0010
0100
,
1001
0000
0000
0000
0000
0000
0100
1000
0110
0000
0001
0000
1001
0010
0100
0000
,
1010
0001
0100
0000
0011
0000
0001
0100
1010
0000
0100
0000
1001
0000
0100
0000
,
1100
0010
0001
0000
0101
0000
1000
0100
0011
0000
0100
0000
1010
0000
0101
0000
,
1001
0010
0100
0000
1100
0000
0001
1000
0110
0000
1000
0000
0011
0100
1000
0000
,
0101
0010
1000
0000
1001
0000
0100
0001
1010
0000
0010
0000
1100
0010
0001
0000
,
1001
0010
1000
0000
0101
0000
0001
1000
0110
0000
0001
0000
0011
0000
0001
0000
,
1010
0100
0001
0000
1100
0000
1010
0001
0110
0000
0100
0000
0011
0000
0100
0000
,
1001
0100
0010
0000
0100
0000
1000
0010
0101
0000
1001
0000
1010
0000
0110
0000
,
1100
0000
1001
0110
1100
1001
0011
0000
,
1001
0100
1010
0001
1100
0010
1001
0100
,
0011
0100
1000
0000
0101
0000
0100
0010
1001
0000
0100
0000
1010
0000
0110
0000
,
0101
0010
1000
0000
1100
0000
0100
0010
0101
0000
1000
0000
0110
1000
0001
0000
,
0101
0010
1000
0000
1100
0000
0100
0010
1001
0000
0100
0000
0011
0000
0000
0000
,
1001
1100
0011
0000
1100
0000
1010
0000
,
1001
1001
1001
1001
,
1100
0011
1100
0011
1100
0011
1100
0011
1100
0011
1100
0011
1100
0011
1100
0011
,
1100
0010
1001
0100
1010
0001
1100
0010
,
1001
0100
0011
1000
0110
0001
1100
0010
,
1001
0100
1010
0001
0110
1000
0011
0101
,
1001
0100
0011
1000
0101
0010
1100
0001
,
1010
0001
0110
1000
0101
0010
1001
0100
,
0011
1000
0110
0001
1100
0010
1001
0100
,
0011
1000
0110
0001
1100
0010
1001
0110
,
1001
0000
0000
0000
0000
0000
0000
0000
0000
0000
0000
0000
0000
0011
0000
0000
0000
0000
0000
0000
0000
0000
0000
0000
0000
0000
0000
0000
0110
0000
0000
0000
0000
0000
0000
0000
0000
0000
0000
0000
0000
0000
0000
0000
0000
0000
0000
1100
0000
0000
0000
0000
0000
0000
0000
0000
0000
0000
0000
0000
0000
0000
0000
0000
,
0000
0000
0000
0000
0000
0000
0000
0000
1010
0000
0000
0000
0000
0000
0000
0000
0000
0000
0000
0000
0000
0000
0000
0000
0000
0000
0000
0000
0000
0000
0000
0000
0000
0000
0000
0000
0000
0101
0000
0000
0000
0000
0000
0000
0000
0000
0000
0000
0000
0000
0000
0000
0000
0000
0000
0000
0000
0000
0000
0000
0000
0000
0000
0000
,
0011
0000
0110
0000
,
0000
0000
0000
0000
,
1001
0110
1001
0110
1001
0110
1001
0110
1001
0110
1001
0110
1001
0110
1001
0110
,
1001
0001
1000
0010
,
1000
0010
1000
0001
,
0010
0001
1000
0010
,
1000
0101
0110
0110
,
1001
0100
0010
0100
,
0010
0001
1000
0010
,
0101
1010
0101
1010
0101
1010
0101
0000
,
1100
0000
0000
0000
,
1001
0110
0011
1100
,
1010
0110
0101
0011
,
1010
0101
1010
1100
,
0101
1100
0011
1010
,
0110
1001
1100
0011
,
0101
1010
0110
1001
,
1100
0011
0101
1010
,
1001
0000
0101
0000
1100
0011
1100
0011
,
1001
1010
0110
0101
,
0011
0110
1100
1001
,
1010
1100
1001
0011
,
1010
0110
0101
1001
,
1100
1010
0110
0101
,
0011
0110
1100
1010
,
0100
0000
0100
0001
0000
0001
0100
0000
,
1010
0000
1100
0000
0000
0000
1100
0000
1001
0000
0110
1001
0110
0000
0011
0000
,
1001
1001
1001
1001
,
1010
1010
1010
1010
,
1001
0101
0011
1010
,
0110
0110
0110
0110
,
1100
0101
1001
0011
,
0110
1100
1010
0110
,
0101
1100
1001
0011
,
1010
0101
1010
0101
1010
0101
1010
0101
,
1100
0011
0101
1001
,
1100
0110
0011
0101
,
0110
1010
1001
1100
,
0101
0011
1010
1010
,
1100
0011
0101
1010
,
0110
1100
0011
0101
,
1001
0000
1010
0000
0110
0000
0011
1100
,
0011
1100
0011
1100
0011
1100
0011
1100
,
0001
0000
1000
0000
,
0010
0010
0001
0001
,
0100
0100
0010
0000
,
0010
0000
0100
0000
,
0110
0000
1000
0000
,
0001
0001
1000
1000
,
0010
0010
0100
0000
,
0001
0000
1000
0000
,
1010
0000
0010
0000
,
1000
1000
0010
0010
,
0100
0100
0001
0000
,
0010
0000
0001
0000
,
0101
0000
0100
0000
,
0100
0100
1000
1000
,
0010
0010
0001
0000
,
1100
0011
1100
0011
1100
0000
0110
0000
,
0011
0000
0101
0000
,
1010
0010
0110
0100
,
0101
0001
0011
0000
,
0110
0000
1100
1100
,
1010
0000
0101
0000
,
1100
0100
1100
1000
,
1001
0001
0011
0000
,
0110
0110
0110
0110
,
1001
0000
0011
0000
,
1001
1000
1010
0010
,
0110
0100
0101
0000
,
0110
0000
1010
1010
,
1001
0000
0011
0000
,
0101
0001
1001
1000
,
1010
1010
0110
0110
,
0001
0000
0000
0000
0001
0000
0000
0000
0011
1100
0011
1100
0011
1100
0011
1100
,
0011
1001
1100
1010
,
0110
0101
0011
0110
,
1100
1010
0110
0101
,
1001
0011
1100
1001
,
1001
1100
1010
0110
,
0101
0011
0110
1100
,
1010
0110
0101
0011
,
0110
1001
0110
1001
0110
1001
0110
1001
,
1100
0000
1001
0000
,
0110
0000
0011
0000
,
1100
0000
1001
0000
,
0101
0000
1010
1001
,
0110
0000
1001
0000
,
1100
0000
0011
0000
,
1100
0000
1001
0000
,
0011
0000
1000
0011
1100
0000
1001
0000
,
1010
0100
1001
0010
,
0101
1000
0110
0001
,
1100
0010
1001
0100
,
1010
0001
0110
1100
,
1001
0010
1100
0001
,
1010
0100
1001
1000
,
0011
0000
1000
0110
1001
0000
1010
0000
,
1001
0110
1001
0110
0000
0000
0000
0000
,
1100
1100
1100
1100
,
1100
1100
1100
1100
,
1001
1001
1001
1001
,
1001
0000
1001
0110
1001
0000
1001
0000
,
0101
0101
0101
0101
,
0101
0101
0101
0101
,
0011
0011
0011
0011
,
0011
0000
0011
1100
0011
1100
0011
0000
,
1010
1010
1010
1010
,
1010
1010
1010
1010
,
0110
0110
0110
0110
,
0110
0000
0110
1001
0110
0000
0110
0000
,
1001
1001
1001
1001
,
1001
1001
1001
1001
,
1001
0110
1001
0110
1100
0011
1100
0011
,
1010
0101
1010
0101
1001
0110
1001
0110
,
1001
0000
0001
0000
,
0010
0010
0100
0100
,
1001
1001
1001
1001
,
0011
0000
0000
0000
0011
0000
0000
0000
0011
0000
0000
0000
0011
0100
1000
0000
,
1100
0000
1000
0000
,
0100
0000
0100
0000
0010
0000
0010
0001
,
1100
0000
1010
0000
0110
0110
0110
0000
,
1001
0000
1001
0000
0011
0011
0011
0011
,
1001
0000
1000
0000
,
0010
0010
0100
0100
,
0011
0011
0011
0011
,
1001
0010
0100
0000
0011
0100
1000
0000
1100
0010
0001
0000
1010
0001
0100
0000
,
1100
0011
1100
0011
1100
0011
1100
0011
,
1100
0011
1100
0011
1100
0011
1100
0011
,
0000
0000
0000
0000
,
0101
1010
0101
1010
0101
1010
0101
1010
0101
1010
0101
1010
0101
1010
0101
1010
,
0000
0200
0000
0000
0000
0000
0000
0000
0000
0000
0000
0000
0000
0000
0000
0000
,
0000
0000
0000
0300
0200
0000
0000
0000
,
0000
0000
0000
0000
,
0000
0000
0000
0000
0000
0000
0000
0000
0000
0000
0300
0000
,
0200
0000
0000
0000
,
0000
0000
0000
0000
,
0000
0300
0110
0000
;

//---------------dance-single - ----------------
#NOTES:
     dance-single:
     :
     Medium:
     10:
     1.000,1.000,1.000,0.039,0.035,812.000,339.000,5.000,0.000,0.000:
0000
0000
0000
0000
,
0000
0000
0000
0000
,
0000
0000
0000
0000
,
0000
0000
0000
0000
,
0000
0000
0000
0000
,
1001
0000
0100
1000
,
0100
1000
0001
0100
,
0100
1000
0100
0010
,
1000
0000
0010
0000
0100
0000
0001
1000
,
0010
0000
0010
0001
,
0010
1000
0001
1000
,
0010
0001
1000
0100
,
1010
0011
1010
0110
,
0101
0000
0100
0001
,
1000
0010
0001
0001
,
0100
0010
0100
1000
,
0010
0000
0100
0000
0001
0000
0001
0100
,
0010
0000
1000
0001
,
0100
0001
1000
0001
,
0010
0100
0001
0100
,
1100
1001
0011
0101
,
1100
0000
0010
0010
,
0010
0100
1000
0001
,
1000
0100
0001
0100
,
0100
0000
0001
0000
0001
0000
0001
0010
,
0001
0000
0010
0001
,
0010
0010
0100
0010
,
0000
0000
0000
0000
,
0001
0100
0001
0100
0001
0100
0001
0100
,
0000
0000
0000
0020
0000
0000
0000
0000
0000
0000
0000
0000
0000
0000
0000
0000
,
0000
0030
0020
0000
,
0000
0000
0000
0000
,
0000
0000
0000
0030
,
1001
1001
0011
1100
,
1001
1010
0110
0101
,
1100
1100
1001
0011
,
1001
1100
1010
1001
,
1010
1001
0101
0011
,
0110
1100
1001
0110
,
0011
0000
0001
0100
0001
0100
0001
0000
,
1100
0000
0001
1000
0010
1000
0001
1000
,
0010
1000
0001
1000
0010
1000
0001
1000
,
0010
1100
0110
1100
,
0101
1010
1001
0110
,
0101
0110
1100
1001
,
0011
0110
1100
1001
,
0011
0110
1100
1001
,
0000
0000
0000
0000
0000
0000
0000
0000
0000
0000
0000
0000
0000
0000
0000
0000
0000
0000
0000
0000
1000
0000
0000
0000
0000
0000
0000
0000
0000
0000
0000
0000
0000
0000
0000
0000
0000
0000
0000
0000
0000
0000
0000
0000
0000
0000
0000
0000
0000
0000
0000
0000
0000
0000
0000
0000
0000
0000
0000
0000
0000
0000
0000
0000
0000
0000
0000
0000
0000
0001
0000
0000
0000
0000
0000
0000
0000
0000
0000
0000
0000
0000
0000
0000
0000
0000
0000
0000
0000
0000
0000
0000
0000
0000
0000
0000
0000
0000
0000
0000
0000
0000
0000
0000
0000
0000
0000
0000
0000
0000
0000
0000
0000
0000
0000
0000
1000
0000
0000
0000
0000
0000
0000
0000
0000
0000
0000
0000
0000
0000
0000
0000
0000
0000
0000
0000
0000
0000
0000
0000
0000
0000
0000
0000
0000
0000
0000
0000
0000
0000
0000
0000
0000
0000
0000
0000
0000
0000
0000
0000
0000
0000
0000
0000
0000
0000
0000
0000
0100
0000
0000
0000
0000
0000
0000
0000
0000
0000
0000
0000
0000
0000
0000
0000
0000
0000
0000
0000
0000
0000
0000
0000
,
0010
0000
0000
0000
,
1001
0000
0100
1000
,
0010
0010
0010
1000
,
1000
0100
0001
0010
,
1000
1000
0100
0010
,
0001
0001
1000
1000
,
0001
0100
0010
0010
,
1000
0100
1000
0010
,
0001
0100
0100
1000
,
0100
0001
0100
0010
,
0001
1000
1000
0001
,
0001
0001
1000
1000
,
0001
0010
0001
0010
,
0100
0100
0001
0010
,
1000
0100
0001
0000
1100
0000
1010
0000
,
1001
1001
1001
1001
,
1000
0100
0010
0001
1000
0100
0010
0001
,
1000
0010
1000
0100
1000
0001
1000
0010
,
1000
0100
0001
1000
0100
0001
1000
0010
,
0001
0100
1000
0001
0010
1000
0010
0100
,
1000
0100
0001
1000
0100
0010
1000
0001
,
0010
0001
0100
1000
0001
0010
1000
0100
,
0001
1000
0010
0001
0100
0010
1000
0100
,
0001
1000
0010
0001
0100
0010
1000
0100
,
0001
0000
0000
0000
0000
0000
0000
0000
0000
0000
0000
0000
0000
0010
0000
0000
0000
0000
0000
0000
0000
0000
0000
0000
0000
0000
0000
0000
0100
0000
0000
0000
0000
0000
0000
0000
0000
0000
0000
0000
0000
0000
0000
0000
0000
0000
0000
1000
0000
0000
0000
0000
0000
0000
0000
0000
0000
0000
0000
0000
0000
0000
0000
0000
,
0000
0000
0000
0000
0000
0000
0000
0000
0010
0000
0000
0000
0000
0000
0000
0000
0000
0000
0000
0000
0000
0000
0000
0000
0000
0000
0000
0000
0000
0000
0000
0000
0000
0000
0000
0000
0000
0001
0000
0000
0000
0000
0000
0000
0000
0000
0000
0000
0000
0000
0000
0000
0000
0000
0000
0000
0000
0000
0000
0000
0000
0000
0000
0000
,
0010
0000
0100
0000
,
0000
0000
0000
0000
,
0001
0010
0100
1000
0001
0010
0100
1000
,
0001
0100
1000
0010
,
1000
0010
1000
0001
,
0010
0001
1000
0010
,
1000
0100
0100
0100
,
1001
0100
0010
0100
,
0010
0001
1000
0010
,
0100
0010
0100
0010
0100
0010
0100
0000
,
0010
0000
0000
0000
,
1001
0110
0011
1100
,
1010
0110
0101
0011
,
1010
0101
1010
1100
,
0101
1100
0011
1010
,
0110
1001
1100
0011
,
0101
1010
0110
1001
,
1100
0011
0101
1010
,
1001
0000
0101
0000
0100
0010
0100
0010
,
1000
1010
0110
0101
,
0011
0110
1100
1001
,
1010
1100
1001
0011
,
1010
0110
0101
1001
,
1100
1010
0110
0101
,
0011
0110
1100
1010
,
0100
0000
0000
0001
0000
0001
0100
0000
,
0010
0100
0000
1000
0001
0010
0100
0010
,
1000
1001
1001
1001
,
1010
1010
1010
1010
,
1001
0101
0011
1010
,
0110
0110
0110
0110
,
1100
0101
1001
0011
,
0110
1100
1010
0110
,
0101
1100
1001
0011
,
1000
0100
1000
0100
1000
0100
1000
0100
,
1000
0011
0101
1001
,
1100
0110
0011
0101
,
0110
1010
1001
1100
,
0101
0011
1010
1010
,
1100
0011
0101
1010
,
0110
1100
0011
0101
,
1001
0000
1010
0000
0110
0000
0010
0100
,
0010
0100
0010
0100
0010
0100
0010
0100
,
0001
0000
1000
0000
,
0010
0010
0001
0001
,
0100
0100
0010
0000
,
0010
0000
0100
0000
,
0110
0000
1000
0000
,
0001
0001
1000
1000
,
0010
0010
0100
0000
,
0001
0000
1000
0000
,
1010
0000
0010
0000
,
1000
1000
0010
0010
,
0100
0100
0001
0000
,
0010
0000
0001
0000
,
0101
0000
0100
0000
,
0100
0100
1000
1000
,
0010
0010
0001
0000
,
1000
0010
1000
0010
1000
0000
0110
0000
,
0011
0000
0101
0000
,
1010
0010
0110
0100
,
0101
0001
0011
0000
,
0110
0000
1100
1100
,
1010
0000
0101
0000
,
1100
0100
1100
1000
,
1001
0001
0011
0000
,
0110
0110
0110
0110
,
1001
0000
0011
0000
,
1001
1000
1010
0010
,
0110
0100
0101
0000
,
0110
0000
1010
1010
,
1001
0000
0011
0000
,
0101
0001
1001
1000
,
1010
1010
0110
0110
,
0001
0000
0001
0000
1000
0010
1000
0100
,
1000
1001
1100
1010
,
0110
0101
0011
0110
,
1100
1010
0110
0101
,
1001
0011
1100
1001
,
1001
1100
1010
0110
,
0101
0011
0110
1100
,
1010
0110
0101
0011
,
0100
0001
0100
0001
0100
0001
0100
0001
,
0100
0000
1001
0000
,
0110
0000
0011
0000
,
1100
0000
1001
0000
,
0101
0000
1010
1001
,
0110
0000
1001
0000
,
1100
0000
0011
0000
,
1100
0000
1001
0000
,
0011
0000
1000
0001
1000
0000
1001
0000
,
1010
0100
1001
0010
,
0101
1000
0110
0001
,
1100
0010
1001
0100
,
1010
0001
0110
1100
,
1001
0010
1100
0001
,
1010
0100
1001
1000
,
0011
0000
1000
0010
1000
0000
1010
0000
,
0001
0100
0001
0100
0000
0000
0000
0000
,
1100
1100
1100
1100
,
1100
1100
1100
1100
,
1001
1001
1001
1001
,
1001
1001
1001
1001
,
0101
0101
0101
0101
,
0101
0101
0101
0101
,
0011
0011
0011
0011
,
0011
0011
0011
0011
,
1010
1010
1010
1010
,
1010
1010
1010
1010
,
0110
0110
0110
0110
,
0110
0110
0110
0110
,
1001
1001
1001
1001
,
1001
1001
1001
1001
,
0001
0001
0100
0100
,
0010
0010
0001
0001
,
1001
0000
0001
0000
,
0010
0010
0100
0100
,
1001
1001
1001
1001
,
0011
0000
0011
0000
0011
0000
0001
0010
,
0100
0000
1000
0000
,
0100
0000
0100
0000
0010
0000
0010
0001
,
0100
0000
1000
0000
0010
1000
0001
0000
,
1001
0000
1001
0000
0010
0100
0001
0100
,
0010
0000
1000
0000
,
0010
0010
0100
0100
,
0011
0011
0011
0011
,
1000
0001
1000
0001
1000
0001
1000
0001
,
1000
0001
1000
0001
1000
0001
1000
0001
,
1000
0001
1000
0001
1000
0001
1000
0001
,
0000
0000
0000
0000
,
0100
0010
0100
0010
0100
0010
0100
0010
,
0000
0200
0000
0000
0000
0000
0000
0000
0000
0000
0000
0000
0000
0000
0000
0000
,
0000
0000
0000
0300
0200
0000
0000
0000
,
0000
0000
0000
0000
,
0000
0000
0000
0000
0000
0000
0000
0000
0000
0000
0300
0000
,
0200
0000
0000
0000
,
0000
0000
0000
0000
,
0000
0300
0110
0000
;
